Willkommen Gast. Bitte einloggen oder registrieren. Haben Sie Ihre Aktivierungs E-Mail übersehen?
13.07.2020, 04:47:04

.
Einloggen mit Benutzername, Passwort und Sitzungslänge

Mitglieder
Statistiken
  • Beiträge insgesamt: 670454
  • Themen insgesamt: 54322
  • Heute online: 213
  • Am meisten online: 2287
  • (22.01.2020, 19:20:24)
Benutzer Online
Mitglieder: 6
Gäste: 102
Gesamt: 108

Autor Thema:  Avidemux öffnet keine m2t-Datei, fehlender Demuxer  (Gelesen 329 mal)

0 Mitglieder und 1 Gast betrachten dieses Thema.

Servus Gemeinde!

Habe ein Appimage Avidemux 2.7.1v2 am Start im Mint Mate 19.1 64bit..
Möchte damit m2t-Dateien vom Kabelstick schneiden.
Diese will es aber nicht wegem fehlenden Demuxer.
Was fehlt da bitte?
Finde nix so richtig dazu.
 
Tuxgrüsse von zitzi

Re: Avidemux öffnet keine m2t-Datei, fehlender Demuxer
« Antwort #1 am: 14.06.2019, 17:55:21 »
Hi
Programm Mediainfo installieren.
M2T Datei damit öffnen.
Auf Text umstellen .
Kompletten Text kopieren
und hier einstellen . (am besten als CODE)

MfG soyo

Sollte dann so aussehen (Beispiel)
General
Complete name                            : /home/mikel/Musik/VideoClips/18 Come On Eileen (Ska Punk).mp4
Format                                   : MPEG-4
Format profile                           : Base Media / Version 2
Codec ID                                 : mp42 (isom/mp42)
File size                                : 9.08 MiB
Duration                                 : 3mn 44s
Overall bit rate mode                    : Variable
Overall bit rate                         : 340 Kbps
Encoded date                             : UTC 2014-09-18 00:50:43
Tagged date                              : UTC 2014-09-18 00:50:43
gsst                                     : 0
gstd                                     : 224071
gssd                                     : CwjMH1416057103979218
gshh                                     : r20---sn-4g57knkz.googlevideo.com

Video
ID                                       : 1
Format                                   : AVC
Format/Info                              : Advanced Video Codec
Format profile                           : High@L3.1
Format settings, CABAC                   : Yes
Format settings, ReFrames                : 1 frame
Format settings, GOP                     : M=1, N=60
Codec ID                                 : avc1
Codec ID/Info                            : Advanced Video Coding
Duration                                 : 3mn 43s
Bit rate                                 : 145 Kbps
Maximum bit rate                         : 311 Kbps
Width                                    : 960 pixels
Height                                   : 720 pixels
Display aspect ratio                     : 4:3
Frame rate mode                          : Constant
Frame rate                               : 29.970 (30000/1001) fps
Color space                              : YUV
Chroma subsampling                       : 4:2:0
Bit depth                                : 8 bits
Scan type                                : Progressive
Bits/(Pixel*Frame)                       : 0.007
Stream size                              : 3.88 MiB (43%)
Encoded date                             : UTC 1904-01-01 00:00:00
Tagged date                              : UTC 2014-09-18 00:50:43

Audio
ID                                       : 2
Format                                   : AAC
Format/Info                              : Advanced Audio Codec
Format profile                           : LC
Codec ID                                 : 40
Duration                                 : 3mn 44s
Bit rate mode                            : Variable
Bit rate                                 : 192 Kbps
Maximum bit rate                         : 202 Kbps
Channel(s)                               : 2 channels
Channel positions                        : Front: L R
Sampling rate                            : 44.1 KHz
Frame rate                               : 43.066 fps (1024 spf)
Compression mode                         : Lossy
Stream size                              : 5.13 MiB (56%)
Title                                    : IsoMedia File Produced by Google, 5-11-2011
Encoded date                             : UTC 2014-09-18 00:50:43
Tagged date                              : UTC 2014-09-18 00:50:43


Re: Avidemux öffnet keine m2t-Datei, fehlender Demuxer
« Antwort #2 am: 14.06.2019, 18:01:10 »
Danke Soyo,

komm grad nicht ans Gerät.
Steht beim Bruder, etwas entfernt.
Wenn ich mal rankomm schau ich da mal.
Vielleicht hat einer ne Idee was fehlt und einfach nachzuinstallieren ist.

Re: Avidemux öffnet keine m2t-Datei, fehlender Demuxer
« Antwort #3 am: 14.06.2019, 18:49:34 »
Hi
Ja, nen Codec fehlt dir .
Die Frage ist welcher ?
Und da du eh nicht rankommst ist es ja gerade egal. ;D
MfG soyo