Willkommen Gast. Bitte einloggen oder registrieren. Haben Sie Ihre Aktivierungs E-Mail übersehen?
29.11.2021, 15:52:12

.
Einloggen mit Benutzername, Passwort und Sitzungslänge

Mitglieder
Statistiken
  • Beiträge insgesamt: 765139
  • Themen insgesamt: 61386
  • Heute online: 630
  • Am meisten online: 2287
  • (22.01.2020, 19:20:24)
Benutzer Online

Autor Thema: [erledigt] Video Editor  (Gelesen 417 mal)

0 Mitglieder und 1 Gast betrachten dieses Thema.

[erledigt] Video Editor
« am: 21.09.2021, 14:55:28 »
Ich suche ein kleines Tool mit dem ich zu Beispiel Divx in Xvid umbenennen kann
so das es für einen Player aussehen tut das das Video ein Xvid ist.
Gruß hanss
« Letzte Änderung: 23.09.2021, 20:14:45 von hanss »

Re: Video Editor
« Antwort #1 am: 21.09.2021, 15:06:27 »
Um eine Datei lediglich umzubenennen benötigt man kein spezielles Programm. Rechte Maustaste - Datei umbenennen. Das war es.
Etwas anders sieht es aus, wenn du die Datei in ein anderes Format umwandeln möchtest.

Re: Video Editor
« Antwort #2 am: 21.09.2021, 15:10:39 »
Das läuft auch nicht unter "Editor", sondern Konverter. Ein Editor kann viel mehr, schneiden, vertonen, mit Effekten belegen usw.
Handbrake ist ein bekannter Konverter.

Re: Video Editor
« Antwort #3 am: 21.09.2021, 15:12:08 »
Wie opajoerg schon bemerkte, kommt es darauf an, was du erreichen willst.

Für Konvertierungen ist z. B das Programm VLC geeignet.

https://wiki.ubuntuusers.de/VLC/

Re: Video Editor
« Antwort #4 am: 21.09.2021, 15:14:43 »
Danke für deine antwort,das ist aber ein Video
Ich möchte Codec ID                                 : DX50
Codec ID/Hint                            : DivX 5
Daraus Xvid machen,also DX50 DivX in Xvid umbenennen.

Re: Video Editor
« Antwort #5 am: 21.09.2021, 15:35:13 »
Verständnisproblem offensichtlich :

Umbenennen ist nicht konvertieren - was ist dein Ziel ?

Re: Video Editor
« Antwort #6 am: 21.09.2021, 15:36:26 »

Re: Video Editor
« Antwort #7 am: 21.09.2021, 17:41:22 »
Hi
Sorry konnte am WE nicht .
Kommt alles von hier :
https://www.linuxmintusers.de/index.php?topic=70854.0

Also . Nen DIVX AVI liegt bei mir , im Ordner Video , und hat den Namen  kommissar1.avi
Ist ein DIVX  (Mediainfo)

General
Complete name                            : /home/mikel/Videos/kommissar1.avi
Format                                   : AVI
Format/Info                              : Audio Video Interleave
File size                                : 524 MiB
Duration                                 : 57 min 27 s
Overall bit rate mode                    : Variable
Overall bit rate                         : 1 275 kb/s
Writing application                      : VirtualDubMod 1.5.10.2 (build 2540/release)
Writing library                          : VirtualDubMod build 2540/release

Video
ID                                       : 0
Format                                   : MPEG-4 Visual
Format profile                           : Advanced Simple@L5
Format settings                          : BVOP1
Format settings, BVOP                    : 1
Format settings, QPel                    : No
Format settings, GMC                     : No warppoints
Format settings, Matrix                  : Default (H.263)
Codec ID                                 : DIVX
Codec ID/Info                            : Project Mayo
Codec ID/Hint                            : DivX 4
Duration                                 : 57 min 27 s
Bit rate                                 : 1 114 kb/s
Width                                    : 512 pixels
Height                                   : 384 pixels
Display aspect ratio                     : 4:3
Frame rate                               : 25.000 FPS
Color space                              : YUV
Chroma subsampling                       : 4:2:0
Bit depth                                : 8 bits
Scan type                                : Progressive
Compression mode                         : Lossy
Bits/(Pixel*Frame)                       : 0.227
Stream size                              : 458 MiB (87%)
Writing library                          : XviD 1.2.1 (UTC 2008-12-04)

Audio
ID                                       : 1
Format                                   : MPEG Audio
Format version                           : Version 1
Format profile                           : Layer 3
Format settings                          : Joint stereo / MS Stereo
Codec ID                                 : 55
Codec ID/Hint                            : MP3
Duration                                 : 57 min 27 s
Bit rate mode                            : Variable
Bit rate                                 : 148 kb/s
Nominal bit rate                         : 160 kb/s
Channel(s)                               : 2 channels
Sampling rate                            : 48.0 kHz
Frame rate                               : 41.667 FPS (1152 SPF)
Compression mode                         : Lossy
Stream size                              : 60.9 MiB (12%)
Alignment                                : Aligned on interleaves
Interleave, duration                     : 24  ms (0.60 video frame)
Interleave, preload duration             : 124  ms
Writing library                          : LAME3.97
Encoding settings                        : -m j -V 4 -q 3 -lowpass 17.5 --abr 160


Sieht man :
Codec ID                                 : DIVX
Codec ID/Info                            : Project Mayo
Codec ID/Hint                            : DivX 4

Ok . Ich öffne den Ordner Video im Terminal , und gebe folgendes ein :

cfourcc -u XVID -d XVID kommissar1.avi

Und , wie durch Zauberhand , ist im Bruchteil einer Sekunde , aus den DIVX ein XVID geworden .  (Mediainfo)

General
Complete name                            : /home/mikel/Videos/kommissar1.avi
Format                                   : AVI
Format/Info                              : Audio Video Interleave
File size                                : 524 MiB
Duration                                 : 57 min 27 s
Overall bit rate mode                    : Variable
Overall bit rate                         : 1 275 kb/s
Writing application                      : VirtualDubMod 1.5.10.2 (build 2540/release)
Writing library                          : VirtualDubMod build 2540/release

Video
ID                                       : 0
Format                                   : MPEG-4 Visual
Format profile                           : Advanced Simple@L5
Format settings                          : BVOP1
Format settings, BVOP                    : 1
Format settings, QPel                    : No
Format settings, GMC                     : No warppoints
Format settings, Matrix                  : Default (H.263)
Codec ID                                 : XVID
Codec ID/Hint                            : XviD
Duration                                 : 57 min 27 s
Bit rate                                 : 1 114 kb/s
Width                                    : 512 pixels
Height                                   : 384 pixels
Display aspect ratio                     : 4:3
Frame rate                               : 25.000 FPS
Color space                              : YUV
Chroma subsampling                       : 4:2:0
Bit depth                                : 8 bits
Scan type                                : Progressive
Compression mode                         : Lossy
Bits/(Pixel*Frame)                       : 0.227
Stream size                              : 458 MiB (87%)
Writing library                          : XviD 1.2.1 (UTC 2008-12-04)

Audio
ID                                       : 1
Format                                   : MPEG Audio
Format version                           : Version 1
Format profile                           : Layer 3
Format settings                          : Joint stereo / MS Stereo
Codec ID                                 : 55
Codec ID/Hint                            : MP3
Duration                                 : 57 min 27 s
Bit rate mode                            : Variable
Bit rate                                 : 148 kb/s
Nominal bit rate                         : 160 kb/s
Channel(s)                               : 2 channels
Sampling rate                            : 48.0 kHz
Frame rate                               : 41.667 FPS (1152 SPF)
Compression mode                         : Lossy
Stream size                              : 60.9 MiB (12%)
Alignment                                : Aligned on interleaves
Interleave, duration                     : 24  ms (0.60 video frame)
Interleave, preload duration             : 124  ms
Writing library                          : LAME3.97
Encoding settings                        : -m j -V 4 -q 3 -lowpass 17.5 --abr 160


Hier
Codec ID                                 : XVID
Codec ID/Hint                            : XviD

Das wars halt .

Mfg soyo